请选择 进入手机版 | 继续访问电脑版
 找回密码
 立即注册
查看: 384|回复: 3

关于有些视频A卡能补帧但补不满的问题

  • TA的每日心情
    开心
    2018-10-5 20:07
  • 签到天数: 1 天

    [LV.1]初来乍到

    1

    主题

    3

    帖子

    0

    真·积分

    新手上路

    Rank: 1

    积分
    348
    未闻 发表于 2019-3-3 18:04:55 | 显示全部楼层 |阅读模式


    如图,应该是新出现的大佬,分享风格类似于以前的11番小队,PV,CM,SP等等都有
    但是不知道为什么他的视频A卡补不到60帧
    同样是HEVC和10bit,以前是可以补足的,这还是第一次遇到





    本帖子中包含更多资源

    您需要 登录 才可以下载或查看,没有帐号?立即注册

    x
    回复

    使用道具 举报

  • TA的每日心情

    2018-1-5 16:42
  • 签到天数: 14 天

    [LV.3]偶尔看看II

    3

    主题

    12

    帖子

    9

    真·积分

    注册会员

    Rank: 2

    积分
    1998
    klplay001 发表于 2019-3-5 23:40:05 | 显示全部楼层
    还有些视频压根不补帧,比如:
    General
    Complete name                  : F:\美剧\Peaky Blinders\Peaky Blinders S01 1080p BluRay x264-SHORTBREHD\Peaky.Blinders.S01E01.1080p.BluRay.x264-SHORTBREHD.mkv
    Format                         : Matroska
    Format version                 : Version 2
    File size                      : 3.97 GiB
    Duration                       : 56 min 58 s
    Overall bit rate               : 9 977 kb/s
    Writing application            : mkvmerge v4.1.1 ('Bouncin' Back') built on Jul  3 2010 22:54:08
    Writing library                : libebml v1.0.0 + libmatroska v1.0

    Video
    ID                             : 1
    Format                         : AVC
    Format/Info                    : Advanced Video Codec
    Format profile                 : High@L4.1
    Format settings, CABAC         : Yes
    Format settings, RefFrames     : 4 frames
    Codec ID                       : V_MPEG4/ISO/AVC
    Duration                       : 56 min 58 s
    Bit rate                       : 8 464 kb/s
    Width                          : 1 920 pixels
    Height                         : 1 040 pixels
    Display aspect ratio           : 1.85:1
    Frame rate mode                : Constant
    Frame rate                     : 25.000 FPS
    Color space                    : YUV
    Chroma subsampling             : 4:2:0
    Bit depth                      : 8 bits
    Scan type                      : Progressive
    Bits/(Pixel*Frame)             : 0.170
    Stream size                    : 3.29 GiB (83%)
    Writing library                : x264 core 138 r2358 9e941d1
    Encoding settings              : cabac=1 / ref=4 / deblock=1:-2:-2 / analyse=0x3:0x113 / me=umh / subme=8 / psy=1 / psy_rd=1.00:0.00 / mixed_ref=1 / me_range=16 / chroma_me=1 / trellis=1 / 8x8dct=1 / cqm=0 / deadzone=21,11 / fast_pskip=1 / chroma_qp_offset=-2 / threads=6 / lookahead_threads=1 / sliced_threads=0 / nr=0 / decimate=1 / interlaced=0 / bluray_compat=0 / constrained_intra=0 / bframes=3 / b_pyramid=2 / b_adapt=2 / b_bias=0 / direct=3 / weightb=1 / open_gop=0 / weightp=2 / keyint=250 / keyint_min=25 / scenecut=40 / intra_refresh=0 / rc_lookahead=50 / rc=2pass / mbtree=1 / bitrate=8464 / ratetol=1.0 / qcomp=0.60 / qpmin=0 / qpmax=69 / qpstep=4 / cplxblur=20.0 / qblur=0.5 / ip_ratio=1.40 / aq=1:1.00
    Language                       : English
    Default                        : Yes
    Forced                         : No

    Audio
    ID                             : 2
    Format                         : DTS
    Format/Info                    : Digital Theater Systems
    Mode                           : 16
    Format settings, Endianness    : Big
    Codec ID                       : A_DTS
    Duration                       : 56 min 58 s
    Bit rate mode                  : Constant
    Bit rate                       : 1 509 kb/s
    Channel(s)                     : 6 channels
    Channel(s)_Original            : 2 channels
    Channel positions              : Front: L R
    Sampling rate                  : 48.0 kHz
    Frame rate                     : 93.750 FPS (512 SPF)
    Bit depth                      : 24 bits
    Compression mode               : Lossy
    Stream size                    : 615 MiB (15%)
    Language                       : English
    Default                        : Yes
    Forced                         : No

    Menu
    00:00:00.000                   : en:00:00:00.000
    00:09:46.600                   : en:00:09:46.600
    00:24:02.680                   : en:00:24:02.680
    00:34:29.920                   : en:00:34:29.920
    00:46:55.640                   : en:00:46:55.640
    回复 支持 反对

    使用道具 举报

  • TA的每日心情
    开心
    2016-11-24 23:16
  • 签到天数: 4 天

    [LV.2]偶尔看看I

    17

    主题

    325

    帖子

    0

    真·积分

    中级会员

    Rank: 3Rank: 3

    积分
    7201
    cylx 发表于 2019-3-6 10:28:58 | 显示全部楼层
    klplay001 发表于 2019-3-5 23:40
    还有些视频压根不补帧,比如:
    General
    Complete name                  : F:\美剧\Peaky Blinders\Peaky B ...

    A卡补帧不支持25fps。
    楼主的片源是动态帧率,madVR里frame time还是显示16ms,计算渲染帧率的的算法不一致吧。
    回复 支持 反对

    使用道具 举报

  • TA的每日心情
    开心
    2018-10-5 20:07
  • 签到天数: 1 天

    [LV.1]初来乍到

    1

    主题

    3

    帖子

    0

    真·积分

    新手上路

    Rank: 1

    积分
    348
    未闻  楼主| 发表于 2019-3-7 18:14:16 | 显示全部楼层
    cylx 发表于 2019-3-6 10:28
    A卡补帧不支持25fps。
    楼主的片源是动态帧率,madVR里frame time还是显示16ms,计算渲染帧率的的算法不一 ...

    那么请问能通过设置改吗,毕竟这个片源不是25FPS的,帧是补上了,补不满而已
    回复 支持 反对

    使用道具 举报

    您需要登录后才可以回帖 登录 | 立即注册

    本版积分规则

    VCB-Studio分享论坛X

    VCB-S微信公众号上线了,欢迎关注!

    欢迎关注VCB-S微信公众号,公众号将不定期推送有关本组最新资源的消息。...

    点击查看详情 
    快速回复 返回顶部 返回列表