请选择 进入手机版 | 继续访问电脑版
 找回密码
 立即注册
查看: 756|回复: 16

[求教]MKVToolNix不能分割FLAC音轨吗?

  • TA的每日心情
    开心
    昨天 15:41
  • 签到天数: 333 天

    [LV.8]以坛为家I

    16

    主题

    138

    帖子

    115

    VC币

    至尊会员

    Rank: 16Rank: 16Rank: 16Rank: 16

    积分
    242046

    崭露头角

    炎发灼眼的OTAKU 发表于 2021-4-1 20:26:47 | 显示全部楼层 |阅读模式
    Moozzi2组的IS 2有一个NCED没有正确分割,想自己分一下,结果提示软件提示“ID 为 1 的轨道。不支持切割此类型的轨道”,而轨道1应该是FLAC音频吧,任务输出那里显示“轨道 1: 使用「FLAC」格式输出模块”
    是我操作问题吗?

    MKVToolNix GUI v55.0.0 64bit
    Win10 64bit
    视频播放信息如下
    Video
    ID                             : 1
    Format                         : HEVC
    Format/Info                    : High Efficiency Video Coding
    Format profile                 : Main 10@L4@High
    Codec ID                       : V_MPEGH/ISO/HEVC
    Duration                       : 3 min 3 s
    Bit rate                       : 8 917 kb/s
    Width                          : 1 920 pixels
    Height                         : 1 080 pixels
    Display aspect ratio           : 16:9
    Frame rate mode                : Constant
    Frame rate                     : 23.976 (24000/1001) FPS
    Color space                    : YUV
    Chroma subsampling             : 4:2:0
    Bit depth                      : 10 bits
    Bits/(Pixel*Frame)             : 0.179
    Stream size                    : 195 MiB (90%)
    Writing library                : x265 3.4+30-g6722fce1f:[Windows][GCC 10.2.0][64 bit] 10bit
    Language                       : Japanese
    Default                        : Yes
    Forced                         : No
    Color range                    : Limited
    Transfer characteristics       : BT.709

    Audio
    ID                             : 2
    Format                         : FLAC
    Format/Info                    : Free Lossless Audio Codec
    Codec ID                       : A_FLAC
    Duration                       : 3 min 3 s
    Bit rate mode                  : Variable
    Bit rate                       : 1 025 kb/s
    Channel(s)                     : 2 channels
    Channel layout                 : L R
    Sampling rate                  : 48.0 kHz
    Frame rate                     : 11.720 FPS (4096 SPF)
    Bit depth                      : 16 bits
    Compression mode               : Lossless
    Stream size                    : 22.4 MiB (10%)
    Writing library                : libFLAC 1.3.2 (UTC 2017-01-01)
    Language                       : Japanese
    Default                        : Yes
    Forced                         : No



    分割的操作是在混流器输出页面/分割/切割模式:按时间点分段简单设置一下就OK了吧?不太懂,求大神解答

    回复

    使用道具 举报

  • TA的每日心情
    开心
    昨天 15:41
  • 签到天数: 333 天

    [LV.8]以坛为家I

    16

    主题

    138

    帖子

    115

    VC币

    至尊会员

    Rank: 16Rank: 16Rank: 16Rank: 16

    积分
    242046

    崭露头角

    炎发灼眼的OTAKU  楼主| 发表于 2021-4-1 21:09:29 | 显示全部楼层
    我要裂开了,拿另一个h.265+TrueHD音轨的视频就成功分割开了。。。真的不支持FLAC分割吗?还是我缺少什么插件??没道理FLAC都不支持吧
    回复 支持 反对

    使用道具 举报

  • TA的每日心情
    开心
    昨天 15:41
  • 签到天数: 333 天

    [LV.8]以坛为家I

    16

    主题

    138

    帖子

    115

    VC币

    至尊会员

    Rank: 16Rank: 16Rank: 16Rank: 16

    积分
    242046

    崭露头角

    炎发灼眼的OTAKU  楼主| 发表于 2021-4-1 21:22:08 | 显示全部楼层
    好吧,在gitlab上找到一篇文章,证实了MKVToolnix确实不能分割FLAC音轨,我要单独把音轨提出来用别的什么软件分割再重新混流回去了
    文章链接
    回复 支持 反对

    使用道具 举报

  • TA的每日心情
    开心
    2019-9-26 01:55
  • 签到天数: 10 天

    [LV.3]偶尔看看II

    1

    主题

    52

    帖子

    0

    VC币

    中级会员

    Rank: 3Rank: 3

    积分
    2122
    Jan 发表于 2021-4-2 04:10:17 | 显示全部楼层
    用旧版本切了就是,用市面上常见的播放器播放是没什么问题的
    回复 支持 反对

    使用道具 举报

  • TA的每日心情
    擦汗
    2020-12-25 17:41
  • 签到天数: 520 天

    [LV.9]以坛为家II

    10

    主题

    312

    帖子

    298

    VC币

    至尊会员

    桜才生徒会書記

    Rank: 16Rank: 16Rank: 16Rank: 16

    积分
    176415

    活跃达人崭露头角新人登场

    七条天空 发表于 2021-4-2 10:47:45 | 显示全部楼层
    是的,最好不要这么搞。
    VCB-Studio队长
    回复 支持 反对

    使用道具 举报

  • TA的每日心情
    无聊
    2018-10-31 18:41
  • 签到天数: 4 天

    [LV.2]偶尔看看I

    0

    主题

    34

    帖子

    0

    VC币

    中级会员

    Rank: 3Rank: 3

    积分
    3233
    787633258 发表于 2021-4-2 11:02:41 | 显示全部楼层
    如果硬要用mkvtoolnix切的话,额外命令行选项里有设置可以开启。
    回复 支持 反对

    使用道具 举报

  • TA的每日心情
    开心
    昨天 15:41
  • 签到天数: 333 天

    [LV.8]以坛为家I

    16

    主题

    138

    帖子

    115

    VC币

    至尊会员

    Rank: 16Rank: 16Rank: 16Rank: 16

    积分
    242046

    崭露头角

    炎发灼眼的OTAKU  楼主| 发表于 2021-4-2 11:59:44 | 显示全部楼层
    787633258 发表于 2021-4-2 11:02
    如果硬要用mkvtoolnix切的话,额外命令行选项里有设置可以开启。

    生成损坏的轨道我不能接受啊。。。
    回复 支持 反对

    使用道具 举报

  • TA的每日心情
    开心
    昨天 15:41
  • 签到天数: 333 天

    [LV.8]以坛为家I

    16

    主题

    138

    帖子

    115

    VC币

    至尊会员

    Rank: 16Rank: 16Rank: 16Rank: 16

    积分
    242046

    崭露头角

    炎发灼眼的OTAKU  楼主| 发表于 2021-4-2 12:02:42 | 显示全部楼层
    七条天空 发表于 2021-4-2 10:47
    是的,最好不要这么搞。

    了解

    我现在是先把视频轨道和FLAC音轨都提取出来,视频轨道用MKVToolnix分割,然后编辑了一个cue文件用foobar2000分割了FLAC音轨,再重新混流。。。

    这样是能解决问题但不知道有没有更好的办法呢
    回复 支持 反对

    使用道具 举报

  • TA的每日心情
    开心
    昨天 15:41
  • 签到天数: 333 天

    [LV.8]以坛为家I

    16

    主题

    138

    帖子

    115

    VC币

    至尊会员

    Rank: 16Rank: 16Rank: 16Rank: 16

    积分
    242046

    崭露头角

    炎发灼眼的OTAKU  楼主| 发表于 2021-4-2 12:03:49 | 显示全部楼层
    Jan 发表于 2021-4-2 04:10
    用旧版本切了就是,用市面上常见的播放器播放是没什么问题的

    就怕有万一啊,有没其他稳妥点的办法啊
    回复 支持 反对

    使用道具 举报

  • TA的每日心情
    开心
    2019-9-26 01:55
  • 签到天数: 10 天

    [LV.3]偶尔看看II

    1

    主题

    52

    帖子

    0

    VC币

    中级会员

    Rank: 3Rank: 3

    积分
    2122
    Jan 发表于 2021-4-2 21:14:34 | 显示全部楼层
    无所谓,BDMV里面文件头信息有误的音轨就有不少,什么时候让你没法正常播放跳转了。
    你可以用SoX转WAV,跟着视频切了再转回FLAC。
    回复 支持 反对

    使用道具 举报

    您需要登录后才可以回帖 登录 | 立即注册

    本版积分规则

    快速回复 返回顶部 返回列表